2024 Pantera fucking hostile - Album: Vulgar Display Of PowerYear: 1992watch 1080p for HQ soundI only post these vids for entertainment purposes only

 
http://www.pegadabrutal.com & http://www.myspace.com/tmfstudios present:Official Video - DIMEBAG DARRELL FESTIVAL IIIPanterA @ FUCKING …. Pantera fucking hostile

Dec 1, 2008 · Lyrics:Almost every dayI see the same faceOn broken picture tubeIt fits the attitudeIf you could see yourselfYou put you on a shelfYour verbal masturbateProm... Please login to save this tab. On this page you will find the Guitar Pro tab for the song Fucking Hostile by Pantera, which has been downloaded 4,467 times.5 Jun 2011 ... I DO NOT OWN SONG OR PICTURE Song: Fucking Hostile Artist: Pantera Album: Vulgar Display of Power Year: 1992 LYRICS One two three four ...Stream Fucking Hostile (Pantera) by BornIntoExile on desktop and mobile. Play over 320 million tracks for free on SoundCloud. SoundCloud Fucking Hostile (Pantera) by BornIntoExile published on 2013-06-25T15:27:25Z. Genre Thrash Metal Comment by Marianna. kkkkkk. 2023-07-24T23:15:29Z Comment by gino-salas-1. we're is Slayer they …Shop Pantera's Fucking hostile cowboys from hell CD for sale by madmanmoon at 20.00 € on CDandLP - Ref:1148864531.Pantera Lyrics. "Fucking Hostile". One, two, three, four. Almost every day, I see the same face. On broken picture tube, it fits the attitude. If you could see yourself, you put you on …Pantera - Mens Fucking Hostile T-Shirt In Black. Date First Available ‏ : ‎ October 19, 2014. ASIN ‏ : ‎ B00ONJ7GUQ. Your Recalls and Product Safety Alerts. Groceries & More. Amazon Web Services. Listen to Books & Original.New recommendations. 0:00 / 0:00. Provided to YouTube by Rhino Atlantic Fucking Hostile · Pantera The Pantera Collection ℗ 1992 Atlantic Recording Corporation for the United …Pantera; Fucking Hostile (Kemal & Rob Data rmx) Almost every day I see the same face On broken picture tube It fits the attitude If you could see yourself You put you on a shelf Your verbal masturbate Promise to nauseate Today I'll play the part of non-parent Not make a hundred rulesAnother Badass live by PanterA, Fucking Hostile Live at San Jose, CA 7 Feb, 1997R.I.P DIMEBAG DARRELL - HEROES NEVER DIESMar 12, 2023 · 43 views, added to favorites 6 times. Tuning: Eb Ab Db Gb Bb Eb. Capo: no capo. Author procraphix [a] 41. Last edit on Mar 12, 2023. View official tab. We have an official Fucking Hostile tab made by UG professional guitarists.Check out the tab ». Album: Vulgar Display Of PowerYear: 1992watch 1080p for HQ soundI only post these vids for entertainment purposes onlyListen to Fucking Hostile by The Loosest Unit for free. Follow The Loosest ... My latest mix paying tribute to a single band, this time the late, great Pantera.Pantera - Mens Fucking Hostile T-Shirt In Black. Date First Available ‏ : ‎ October 19, 2014. ASIN ‏ : ‎ B00ONJ7GUQ. Your Recalls and Product Safety Alerts. Groceries & More. Amazon Web Services. Listen to Books & Original.Another Badass live by PanterA, Fucking Hostile Live at San Jose, CA 7 Feb, 1997R.I.P DIMEBAG DARRELL - HEROES NEVER DIESBest Pantera Fucking Hostile Since 1981 XXX Stronger Than All Gift Top – After approximately 2 weeks you will receive the item. Pantera Fucking Hostile ...Fucking hostile We stand alone The truth in right and wrong The boundaries of the law You seem to miss the point Arresting for a joint? You seem to wonder why Hundreds of …Fucking Hostile Tab by Pantera. Free online tab player. One accurate version. Recommended by The Wall Street JournalFucking Hostile Guitar Pro by Pantera. 70,922 views, added to favorites 1,466 times. Tuning: E A D G B E: Capo: ... Get access to Pro version of "Fucking Hostile"!Fucking Hostile Lyrics: One, two, three, four / Almost every day, I see the same face / On broken picture tube, it fits the attitude / If you could see yourself, you put you on a shelf / Your... #Pantera #FuckingHostilet #RockReactionPantera - Fucking HostileThanks for the 13.6K!! Let's get to 20K subs by the end of March!!Follow your boy on the soci...Fucking Hostile - Pantera (lyrics video) . Fucking hostle by PanteraYear: 1992Genre: Groove metal - Thrash metalAlbum: Vulgar Display of PowerTracklist:1 Mouth for War2 A New Level3 Walk4... Fucking Hostile Lyrics: One, two, three, four / Almost every day, I see the same face / On broken picture tube, it fits the attitude / If you could see yourself, you put …Patch - Pantera - Fucking Hostile. Woven Sew-on. Officially licensed woven patch. Woven polyester patches with a stitched overlocked edge.Mar 12, 2023 · 43 views, added to favorites 6 times. Tuning: Eb Ab Db Gb Bb Eb. Capo: no capo. Author procraphix [a] 41. Last edit on Mar 12, 2023. View official tab. We have an official Fucking Hostile tab made by UG professional guitarists.Check out the tab ». PanterA/ Dimebag Darrell Fucking Hostile Live at monsters of rock - festivale in Donington, England 1994Jun 11, 2016 · Lyrics:Almost every dayI see the same faceOn broken picture tubeIt fits the attitudeIf you could see yourselfYou put you on a shelfYour verbal masturbateProm... So what—to use one of the new album’s song titles—makes Anselmo so “Fucking Hostile”? “There’s a lot of things that make him angry,” explains Paul, “but he’s not necessarily writing anger in a negative fashion. He’s angry and he’s expressing a viewpoint, but it’s also an anger that turns positive, you know what I’m ...Watch. Home. LiveFucking Hostile Tab by Pantera. Free online tab player. One accurate version. Recommended by The Wall Street JournalMar 12, 2023 · 43 views, added to favorites 6 times. Tuning: Eb Ab Db Gb Bb Eb. Capo: no capo. Author procraphix [a] 41. Last edit on Mar 12, 2023. View official tab. We have an official Fucking Hostile tab made by UG professional guitarists.Check out the tab ». Shop Pantera Fucking Hostile Iron On Patch. One of many items available from our Appliques & Patches department here at Fruugo!Best Pantera Fucking Hostile Since 1981 XXX Stronger Than All Gift Top – After approximately 2 weeks you will receive the item. Pantera Fucking Hostile ...ARTIST. Pantera. ALBUM. Fucking Hostile. LICENSES. WMG (on behalf of Atlantic 0191); BMI - Broadcast Music Inc., LatinAutorPerf, LatinAutor - Warner Chappell, CMRRA, PEDL, Warner Chappell,...Pantera by emxy. Topics Pantera. best of Pantera. Addeddate 2020-02-12 06:34:04 External_metadata_update 2020-09-28T09:23:13Z Identifier pantera_202002 Scanner ... Fucking Hostile download. 10.9M . Heresy download. 10.1M . I'm Broken download. 16.1M ...Watch the video for Fucking Hostile from Pantera's Vulgar Display of Power for free, and see the artwork, lyrics and similar artists. pantera fucking hostile live 1994 subtitulado dimebag darrell rip del album vulgar display of powerFucking Hostile - Pantera (lyrics video) . Fucking hostle by PanteraYear: 1992Genre: Groove metal - Thrash metalAlbum: Vulgar Display of PowerTracklist:1 …Mar 27, 2023 · Fucking Hostile 11. Planet Caravan (BLACK SABBATH cover) 12. Walk 13. Domination / Hollow 14. Cowboys From Hell. PANTERA's surviving members Philip Anselmo (vocals) and Rex Brown (bass) ... PANTERA - Fucking Hostile- Patch; PANTERA - Fucking Hostile- Patch. €3.50. incl. VAT plus Shipping costs. In stock. SKU. 305354. Qty-+ ... Add to Cart. More from Pantera . Fucking Hostile- Patch. Skip to the end of the images gallery . Skip to the beginning of the images gallery . Release Date 22.10.21 Genre Thrash Metal. Details ...In the world of stress research, anger and hostility are the most widely studied behavioral characteristics. S In the world of stress research, anger and hostility are the most widely studied behavioral characteristics. Studies indicate tha...FILE "Pantera - Vulgar Display Of Power (7567-91758-2).flac" WAVE TRACK 01 AUDIO TITLE "Mouth For War" PERFORMER "Pantera" INDEX 01 00:00:00 TRACK 02 AUDIO TITLE "A New Level" PERFORMER "Pantera" INDEX 01 03:57:17 TRACK 03 AUDIO TITLE "Walk" PERFORMER "Pantera" INDEX 01 07:54:52 TRACK 04 AUDIO TITLE "Fucking Hostile" PERFORMER "Pantera" INDEX ...The song 'Fucking Hostile' by Pantera has a tempo of 186 beats per minute (BPM) on 'Vulgar Display of Power'.Listen to Fucking Hostile on Spotify. Pantera · Song · 1992. ... Pantera · Song · 1992. Listen to Fucking Hostile on Spotify. Pantera · Song · 1992. Sign up Log in. Home; Search; Your Library. Create your first playlist It's easy, we'll help you. Create playlist.Patches /. Pantera patch - Fucking Hostile. Pantera patch - Fucking Hostile. Pantera patch. Formaat: 10 x 8 cm. Verzendkosten. : € 4,95.18 Jun 2009 ... Pantera - Fucking Hostile (Live). 15K views · 14 years ago ...more. QuorthonVikingKing. 310. Subscribe. 310 subscribers. 76. Share. Save.Fucking Hostile (Pantera cover) Play Video; Walk (Pantera cover) Play Video (Reprise) Sandblasted Skin (Pantera cover) (with snippet of Shout at the Devil; ...Chords Texts PANTERA Fucking hostile. Chordsound to play your music, study scales, positions for guitar, search, manage, request and send chords, lyrics and sheet musicProvided to YouTube by Rhino AtlanticFucking Hostile · PanteraThe Pantera Collection℗ 1992 Atlantic Recording Corporation for the United States and WEA Inter...Pantera in 2022: Phil Anselmo, Rex Brown, Zakk Wylde and Charlie Benante. F**** Hostile live at Knotfest Colombia I’m Bogotá, December 9 2022 5 days ago ... The Return of DimeFest – Still Fucking Hostile a celebration of PANTERA In occasione dell'anniversario della morte dell'immenso Dimebag ...Another Badass live by PanterA, Fucking Hostile Live at San Jose, CA 7 Feb, 1997R.I.P DIMEBAG DARRELL - HEROES NEVER DIESYou can buy my albums or singles here:DIRECT FROM ME (LOSSLESS) http://bit.ly/2usJ3lqITUNES http://apple.co/1Lni4PRAMAZON http://amzn.to/1U2rqUaGOOGLE ...In their performance of “5 Minutes Alone,” Robert and Toyah pay homage to Pantera with a worthy cover of the standout track from 1994’s Far Beyond Driven. Robert, of course, is best known as the founding guitarist of prog legends King Crimson , but he gets his metal on while shredding Dimebag’s famous riffs.Fucking Hostile is a song by Pantera with a tempo of 94 BPM. It can also be used double-time at 188 BPM. The track runs 2 minutes and 49 seconds long with a F♯/G♭ key and a minor mode. It has high energy and is somewhat danceable with a …Jun 25, 1993 · Fucking Hostile (Biomechanical Mix) Lyrics. 3. By Demons ... More Pantera albums Live At Dynamo Open Air 1998. The Best of Pantera: Far Beyond the Great Southern Cowboys’ Vulgar Hits! Listen to Fucking Hostile - Live from Donington on Spotify. ... Pantera · Song · 2014. Pantera · Song · 2014. Listen to Fucking Hostile - Live from Donington on Spotify. Pantera · Song · 2014. Sign up Log in. Home; Search; Your Library. Create your first playlist It's easy, we'll ...Pantera Lyrics - All the great songs and their lyrics from Pantera on Lyrics.com. Login . ... Fucking Hostile: 2:48: I'm Broken: 4:24: 5 Minutes Alone: 5:49: Drag the ...Facebook: http://www.facebook.com/Pantera Band: Pantera Album: Vulgar Display Of Power (Remastered) [20th Anniversary Deluxe Edition] (2012) Genre: …Fucking hostile (Fottutamente ostili) è la traccia numero quattro del sesto album dei Pantera, Vulgar Display of Power, pubblicato il 25 febbraio del 1992.Nel brano Phil Anselmo urla tutte le sue critiche verso le istituzioni degli Stati Uniti : il presidente (nella prima strofa), la polizia (nella seconda) e la chiesa (nella terza).I'd bust the punks That rape steal and murder. And leave you be If you crossed me. I'd shake your hand like a man Not a god. (Chorus) Come meet your maker, boy Some things you can't enjoy. Because ...Choose and determine which version of Fucking Hostile chords and tabs by Pantera you can play. Last updated on 09.14.2016Pantera. $55.00. Pantera. Provided to YouTube by Atlantic RecordsFucking Hostile · PanteraVulgar Display of Power℗ 1992 Atlantic Recording Corporation for the United States and WEA In...ARTIST. Pantera. ALBUM. Fucking Hostile. LICENSES. WMG (on behalf of Atlantic 0191); BMI - Broadcast Music Inc., LatinAutorPerf, LatinAutor - Warner Chappell, CMRRA, PEDL, Warner Chappell,... 13 Oct 2009 ... Download Fucking Hostile Ringtone to your mobile phone or tablet for free, uploaded by dyrain3. Get Free Ringtones downloads like Fucking ...Jun 12, 2023 · Now I'll play a public servant To serve and protect by the law and the state I′d bust the punks that rape, steal and murder And leave you be if you crossed me, I′d shake your hand like a man Not a god To see To bleed Cannot be taught In turn, you're making us Fucking hostile! We stand alone Vince! Come meet your maker, boy Some things you ... 10 Sept 2020 ... Pantera- Fucking Hostile [Bass Cover] · Comments4.Pantera released and sold their early albums themselves – with sales eventually reaching the 1000 mark – but times were changing. ... There’s little to say about Fucking Hostile not relayed by the song’s title, and even when they drop the tempo, on the likes of Hollow and This Love, there’s an almost insidious heaviness to the band ...#reggae #rootsreggae #dub*****1- Brimstone – Final Judgement & Final Dub 2- Ethiopian...Pantera Fucking HostileGuitar Only#Pantera#DimebagDarrel#FuckingHostileMar 23, 2022 · #Pantera #FuckingHostilet #RockReactionPantera - Fucking HostileThanks for the 13.6K!! Let's get to 20K subs by the end of March!!Follow your boy on the soci... Watch. Home. LiveFILE "Pantera - Vulgar Display Of Power (7567-91758-2).flac" WAVE TRACK 01 AUDIO TITLE "Mouth For War" PERFORMER "Pantera" INDEX 01 00:00:00 TRACK 02 AUDIO TITLE "A New Level" PERFORMER "Pantera" INDEX 01 03:57:17 TRACK 03 AUDIO TITLE "Walk" PERFORMER "Pantera" INDEX 01 07:54:52 TRACK 04 AUDIO TITLE "Fucking Hostile" PERFORMER "Pantera" INDEX ...Shop Pantera Fucking Hostile Iron On Patch. One of many items available from our Appliques & Patches department here at Fruugo!#-----# Visit MetalTabs.com for more metal tablature Pantera "Fucking Hostile" from VULGAR DISPLAY OF POWER (1992) Tabbed by Nick S. Note: Dime usually tunes down one and a half steps, but my guitar has a Floyd Rose tremolo system & I have had trouble in the past detuning it & then putting it back in the standard tuning, so I figured this out ...This feature was originally published in July 2012. On February 25th, 1992, the word "heavy" got a new definition. For that was the day that Texas metal upstarts Pantera dropped their second major-label album, third record with singer Phil Anselmo, and sixth release overall, Vulgar Display of Power, onto an unsuspecting world.The impact is …New recommendations. 0:00 / 0:00. Provided to YouTube by Rhino Atlantic Fucking Hostile · Pantera The Pantera Collection ℗ 1992 Atlantic Recording Corporation for the United …28 Mar 2018 ... Pantera - Fucking Hostile (Lyrics) - Coub - The Biggest Video Meme Platform by j_bandi.PanterA/ Dimebag Darrell Fucking Hostile Live at monsters of rock - festivale in Donington, England 1994Fucking Hostile (Pantera cover) Play Video; Note: Far Beyond Driven 25th anniversary show. I was there 3 setlist.fm users were there. Edit setlist Show all edit options.Almost every day I see the same face On broken picture tube It fits the attitude If you could see yourself You put you on a shelf Your verbal mas... this love isn’t just my favorite song off of this album, but also my favorite pantera song EVER, such a fuckin’ banger of a track. 2. ChillNachoSauce • 3 mo. ago. Hollow and this love is fire I feel like walk is now the cringy overplayed song like master of puppets is now... 2. xanhudro • 3 mo. ago. Fucking Hostile.5 Feb 2018 ... Pantera (Cover) Artist: New Years Day Song: Fucking Hostile EP: Diary of a Creep I do not own anything of this song ©WMG.19 Oct 2023 ... Fucking Hostile Tab by Pantera. Free online tab player. One accurate version. Recommended by The Wall Street Journal.1991. Vulgar Display Of Power ( CD, Album) ATCO Records, ATCO Records. 7567-91758-2, 7567-91758-2 YS. Europe. 1992. Recently Edited.Fucking Hostile Tab by Pantera. 31,699 views, added to favorites 271 times. Rating: ☆ 4.6 / 5 (4); Difficulty: intermediate; Tuning: Eb Ab Db Gb Bb Eb; Author ...Pantera · Song · 2019Pantera fucking hostile

One, two, three, four! Did anybody ever watch the Pantera parody vids on YouTube called Cooking Hostile? I used to love these guys, but I just can't separate their music from the actions of Phil Anselmo anymore. If he mellowed out with age like Fenriz or Axl Rose, it'd be one thing, but he's still the same boozing moron he ever was.. Pantera fucking hostile

pantera fucking hostile

10 Sept 2020 ... Pantera- Fucking Hostile [Bass Cover] · Comments4.ARTIST. Pantera. ALBUM. Fucking Hostile. LICENSES. WMG (on behalf of Atlantic 0191); BMI - Broadcast Music Inc., LatinAutorPerf, LatinAutor - Warner Chappell, CMRRA, PEDL, Warner Chappell,... as made famous by Pantera Original songwriters : Darrell Lance Abbott, Vincent Paul Abbott, Philip Hansen Anselmo, Rex Robert Brown This title is a cover of Fucking Hostile as made famous by PanteraSong: Fucking HostileBand: PanteraAlbum: Vulgar Display of PowerGenre: Groove MetalYear: 1992Country: USALineup:Dimebag Darrell (RIP. 2004) - GuitarsPhil Ans...Pantera's setlist can vary depending on the venue and the country the performance is played at however this is the most likely setlist for Pantera Tour: Mouth for War; Primal Concrete Sledge; Hollow; A New Level - 2012 Remaster; Fucking Hostile; Cemetery Gates; Revolution Is My Name; I'm BrokenOfficial live video of Pantera performing "Domination". Original song from 'Cowboys from Hell' (1990)📼 Watch all of Pantera’s official videos here http://bi...Pantera released and sold their early albums themselves – with sales eventually reaching the 1000 mark – but times were changing. ... There’s little to say about Fucking Hostile not relayed by the song’s title, and even when they drop the tempo, on the likes of Hollow and This Love, there’s an almost insidious heaviness to the band ...Fucking hostile We stand alone Come meet your maker boy, some things you can't enjoy Because of Heaven/Hell, a fucking wive's tale They put it in your head, then put you in your bed He's watching - say your prayers 'Cause God is everywhere Now I'll play a man learning priesthood Who's about to take the ultimate test in lifePantera's setlist can vary depending on the venue and the country the performance is played at however this is the most likely setlist for Pantera Tour: Mouth for War; Primal Concrete Sledge; Hollow; A New Level - 2012 Remaster; Fucking Hostile; Cemetery Gates; Revolution Is My Name; I'm BrokenFucking Hostile We stand alone, the truth in right and wrong, the boundaries of the law, you seem to miss the point, arresting for a joint? You seem to wonder why hundreds of people die, you're writing tickets man, my mom got jumped they ran! Now I'll play a public servant, to serve and protect by the Law and the State.Fucking Hostile (Biomechanical Mix) Lyrics. 1,2,3,4. We stand alone. We stand alone. Almost every day. I see the same face. On broken picture tube. It fits the attitude. Oooh …27 Aug 2023 ... This video may be inappropriate for some users. Sign in. Pantera-Fucking Hostile. 5 views · 8 hours ago NORTH ISLAND CREDIT UNION ...Pantera foi uma banda de Metal americana originária da cidade de Arlington, no estado do Texas, no ano de 1981. Formada pelos irmãos Abbott, Vinnie Paul (Baterista) e Diamond Darrell (o nome Dimebag Darrell só começou a ser utilizado já nos anos de 1990) (Guitarrista).5 Feb 2018 ... Pantera (Cover) Artist: New Years Day Song: Fucking Hostile EP: Diary of a Creep I do not own anything of this song ©WMG.Vulgar Display of Power is the sixth studio album by American heavy metal band Pantera.Released on February 25, 1992, through Atco Records, it was the band's second collaboration with producer Terry Date, after having worked with him on their breakthrough album Cowboys from Hell (1990).. The album was well received by both critics and fans, …One, two, three, four! Almost every day I see the same face On broken picture tube It fits the attitude If you could see yourself You put you on a shelf Your verbal masturbate Promise to nauseate Today I'll play the part of non-parent Not make a hundred rules for you to know about yourself Not lie and make you believe what's evil Is making love and making friends and meeting God your own way ...Fucking Hostile / Mouth for War, a Single by Pantera. Released in 1992 on EastWest (catalog no. SAM 951; Vinyl 12"). Genres: Thrash Metal, Groove Metal.A tribute to the recently deceased Dimebag Darrell. text Graham Hartmann. April 6, 2023. Imagine going to an In Flames show in 2004 and hearing them bust out Pantera 's "Fucking Hostile." The Swedish veterans have only performed the cover once — as a tribute to Dimebag Darrell just weeks after he was senselessly murdered onstage.Pantera. $55.00. Pantera. Provided to YouTube by Atlantic RecordsFucking Hostile · PanteraVulgar Display of Power℗ 1992 Atlantic Recording Corporation for the United States and WEA In... 5 Dec 2022 ... In fucking hostile, I swear Phil said “bitch!” Instead of “Vince!” Right before the guitar solo, learned that one only a couple months ago ...Let's review the charts and indicators....JBLU Employees of TheStreet are prohibited from trading individual securities. Let's look at what separates great trading from bad. These regional banks offer above-average yields and reliable d...Pantera Fucking Hostile Live @ Donington 1994Album Vulgar Display Of Power [1992]You seem to wonder why Hundreds of people die You're writing tickets man My mom got jumped -- they ran! Now I'll play a public servant To serve and protect By the law and the state I'd bust the punks That rape steal and murder And leave you be If you crossed me I'd shake your hand like a man Not a god To see To bleed Cannot be taught In turn ...Questions for a hostile work environment investigation should focus on obtaining as many details as possible from the party filing the compliant as well as from the allegedly offending parties. These can include requests for physical proof ...25 Aug 2023 ... Pantera - Fucking Hostile [HD] LIVE 8/17/2023 · Comments.According to Pantera drummer Vinnie Paul, the guy getting slugged on the cover of the band’s new album, Vulgar Display of Power, received $300 for his troubles. Along with a nice, fat lip. ... So what—to use one of the new album’s song titles—makes Anselmo so “Fucking Hostile”? “There’s a lot of things that make him angry ...I'd bust the punks That rape steal and murder. And leave you be If you crossed me. I'd shake your hand like a man Not a god. (Chorus) Come meet your maker, boy Some things you can't enjoy. Because ...27 Feb 1992 ... So what—to use one of the new album's song titles—makes Anselmo so “Fucking Hostile”? “There's a lot of things that make him angry,” explains ..."Copyright Disclaimer Under Section 107 of the Copyright Act 1976, allowance is made for "fair use" for purposes such as criticism, comment, news reporting, ..."Fuckin Hostile" by Lenny Dee (DJ) sampled Pantera's "Fucking Hostile". Listen to both songs on WhoSampled, the ultimate database of sampled music, cover songs and remixes.#Pantera #FuckingHostilet #RockReactionPantera - Fucking HostileThanks for the 13.6K!! Let's get to 20K subs by the end of March!!Follow your boy on the soci...In the world of stress research, anger and hostility are the most widely studied behavioral characteristics. S In the world of stress research, anger and hostility are the most widely studied behavioral characteristics. Studies indicate tha...Examples of a hostile work environment include situations where women or people of color are singled out for ridicule, harassment, violence or work sabotage based on their status in protected classes.December 14, 2022. The song "Fucking Hostile" by Pantera focuses on the idea that a person should make their own decisions and choose their own course of action regardless of any pressure from the church, government, or parental figures. The song speaks out against oppressive laws and regulations, and how some people may feel like they have to ...Fucking Hostile (Biomechanical Mix) Lyrics. 3. By Demons ... More Pantera albums Live At Dynamo Open Air 1998. The Best of Pantera: Far Beyond the Great Southern Cowboys’ Vulgar Hits!Jul 20, 2008 · PanterA lyric of Fucking HostileEnjoy!-----Letra de PanterA - Fucking HostileDisfruten!-----O lyric de PanterA do Fucking Hostileap... Feb 27, 1992 · So what—to use one of the new album’s song titles—makes Anselmo so “Fucking Hostile”? “There’s a lot of things that make him angry,” explains Paul, “but he’s not necessarily writing anger in a negative fashion. He’s angry and he’s expressing a viewpoint, but it’s also an anger that turns positive, you know what I’m ... Pantera - Fucking HostileOriginal Video:https://youtu.be/E929gqIcwwIDonate to the Channel:https://www.paypal.com/cgi-bin/webscr?cmd=_donations&business=QYKFY... Lyrics:Almost every dayI see the same faceOn broken picture tubeIt fits the attitudeIf you could see yourselfYou put you on a shelfYour verbal masturbateProm...Dec 14, 2022 · December 14, 2022. The song "Fucking Hostile" by Pantera focuses on the idea that a person should make their own decisions and choose their own course of action regardless of any pressure from the church, government, or parental figures. The song speaks out against oppressive laws and regulations, and how some people may feel like they have to ... Artist: PanteraSong: Fuckin' HostileAlbum: Official Live: 101 ProofGenre: Groove MetalYear: 1997Listen to Fucking Hostile by The Loosest Unit for free. Follow The Loosest ... My latest mix paying tribute to a single band, this time the late, great Pantera.7,5cm x 10cm. PANTERA - FUCKING HOSTILE. Κοινή χρήση. Κοινή χρήση · Tweet · Google+ · Pinterest. 6,00 €. με ΦΠΑ. 7,5cm x 10cm. Ποσότητα. Αγορά.About Press Copyright Contact us Creators Advertise Developers Terms Privacy Policy & Safety How YouTube works Test new features NFL Sunday Ticket Press Copyright ...だからさ、Pantera "Fucking Hostile" を意訳したんだ。 タイトル:Fucking Hostile. 作 詞:Pantera. 作 曲:Pantera. 収録アルバム:Vulgar Display of Power One, Two, Three, Four! Almost every day. I see the same face. On broken picture tube. It fits the attitude. If you could see yourself. You put you on a shelfChords Texts PANTERA Fucking hostile. Chordsound to play your music, study scales, positions for guitar, search, manage, request and send chords, lyrics and sheet musicA tribute to the recently deceased Dimebag Darrell. text Graham Hartmann. April 6, 2023. Imagine going to an In Flames show in 2004 and hearing them bust out Pantera 's "Fucking Hostile." The Swedish veterans have only performed the cover once — as a tribute to Dimebag Darrell just weeks after he was senselessly murdered onstage.2-01. Pantera - Mouth For War (03:56) 2-02. Pantera - A New Level (03:57) 2-03. Pantera - Walk (05:15) 2-04. Pantera - Fucking Hostile (02:48) 2-05. Pantera - This Love (06:32) 2-06. Pantera - Rise (04:38) 2-07. Pantera - No Good (Attack The Radical) [Explicit] (04:48) 2-08. Pantera - Live In A Hole (05:00) 2-09. Pantera - Regular People ...Feb 18, 2014 · Fucking Hostile Guitar Pro by Pantera. 70,922 views, added to favorites 1,466 times. Tuning: E A D G B E: Capo: ... Get access to Pro version of "Fucking Hostile"! FILE "Pantera - Vulgar Display Of Power (7567-91758-2).flac" WAVE TRACK 01 AUDIO TITLE "Mouth For War" PERFORMER "Pantera" INDEX 01 00:00:00 TRACK 02 AUDIO TITLE "A New Level" PERFORMER "Pantera" INDEX 01 03:57:17 TRACK 03 AUDIO TITLE "Walk" PERFORMER "Pantera" INDEX 01 07:54:52 TRACK 04 AUDIO TITLE "Fucking Hostile" PERFORMER "Pantera" INDEX ...Vulgar Display of Power is the sixth studio album by American heavy metal band Pantera. Released on February 25, 1992, through Atco Records, it was the band's second collaboration with producer Terry Date, after having worked with him on their breakthrough album Cowboys from Hell (1990). The album was well received by both critics and fans, and ... . Wujek calcaterra funeral home obituaries